Hoşgeldiniz!

Sitemizin imkanlarından yararlanmak için üye olun veya giriş yapınız.

Giriş Yap
  • Stereo (2Ch) Sesler Hakkında!!!
    Merhaba 01.01.2024 tarihinde Stereo yani 2 kanal seslerin kategorisi tamamen son verilecektir sitemiz günümüz teknolojisine uygun olmakla birlikte belirtilen tarihinden itibaren Surround,Dolby Atmos,DTS 5.1-7.1 İşlenmiş,Orjinal ve yakında yine her zaman ki gibi hiçbir sitede yapılmayan Dolby Atmos gibi DTS-X Master Audio teknolojisine sahip yani nesne tabanlı DTS-X Master Audio seslerle hizmet vermeye devam edecektir. Anlayışınız için teşekkürler sağlıklı günler dileriz. By Audio Restruction Technology BigDVD - TSI
  • V.I.P ÜCRETLERİ GÜNCELLENMİŞTİR...!!!
    V.I.P Paketlerimiz güncellenmiş olup 6 Aylık - 12 Aylık Orjinal sesler - 12 Aylık Restruction Sesler olarak 3 paket olarak sunulmaktadır. Detaylı bilgi için bizimle Discord veya Skype üzerinden iletişime geçebilirsiniz. Lütfen gerçekten V.I.P alacaklar eklesin aksi takdir'de discord kanalımıza giriş yapıldığında kanalımızdan çıkarıyorum bilginiz olsun. TSI olarak sağlıklı günler dileriz. İletişim Skype: bigdvd3 - Discord: TIKLAYIN

Türkçe Ses Dosyası İndir

ÖNEMLİ! V.I.P ÜCRETLERİ GÜNCELLENMİŞTİR...!!!

V.I.P Paketlerimiz güncellenmiş olup 6 Aylık - 12 Aylık Orjinal sesler - 12 Aylık Restruction Sesler olarak 3 paket olarak sunulmaktadır. Detaylı bilgi için bizimle Discord veya Skype üzerinden iletişime geçebilirsiniz. Lütfen gerçekten V.I.P alacaklar eklesin aksi takdir'de discord kanalımıza giriş yapıldığında kanalımızdan çıkarıyorum bilginiz olsun. TSI olarak sağlıklı günler dileriz. İletişim Skype: bigdvd3 veya discord sunucumuzdan bilgi alabilirsiniz.

BBC Planet Earth III S01E07 5196Kbps 23Fps 8Ch DTS-HD MA BBC Restruction TR Audio TSI

3YWYbaAJ_t.jpg


1. Sezon 7. Bölüm

5196Kbps 23Fps 8Ch BBC Restruction
Türkçe Ses Dosyası

SIMPLE DTS-HD MA:
DOWNLOAD

Amazon Red Queen S01 640Kbps 24Fps 6Ch E-AC3 Amazon TR Audio TSI

gEKEE0QA_t.jpg


Tüm Bölümler Klasörün İçindedir.

640 Kbps 24Fps 6Ch Amazon
Türkçe Ses Dosyası

Apple TV Every Body 2023 520Kbps 23Fps 6Ch AAC AppleTV TR Audio TSI

fbU88SQg_t.jpg


520Kbps 23Fps 6Ch AppleTV
Türkçe Ses Dosyası

Blu-Ray Thanksgiving 2023 640Kbps 23Fps 6Ch AC3 Bluray TR Audio TSI

ak2Qdzb2lSZPjycNNgXPHeWv6pS.jpg


640Kbps 23Fps 6Ch Bluray
Türkçe Ses Dosyası

Netflix Code 8 2019 640Kbps 23Fps 6Ch E-AC3 Netflix TR Audio TSI

izGX7npHEopDQvngYcxMJEfcFbj.jpg


640Kbps 23Fps 6Ch Netflix
Türkçe Ses Dosyası

Netflix Code 8 Part II 2024 768Kbps 24Fps 6Ch E-AC3 Atmos Netflix TR Audio TSI

g21EcgDB5Faninkg5NxKXNDmhGr.jpg


768Kbps 24Fps 6Ch Netflix
Türkçe Ses Dosyası

MKV 1923 S01E01 1080p MKV X264 DDP 5.1 Atmos TR-ENG TSI

1923 S01E01 1080p MKV X264 DDP 5.1 Atmos TR-ENG TSI

T70KfItn_t.jpg



8.3 / 10

Türü:
Dram, Western

Özet

Yellowstone’un öncesinde geçen 1923, Amerika Birleşik Devletleri'ndeki Yasak ve Büyük Buhran döneminde yaşayan Dutton ailesinin hikayesini konu ediyor. Aile reisi Jacob ve karısı Cara çiftliklerini yönetirken, tarihi kuraklık, salgın hastalıklar gibi çağın zorluklarıyla yüzleşmek zorunda kalacak.

Kod:
ID                             : 1
Format                         : AVC
Format/Info                    : Advanced Video Codec
Format profile                 : [email protected]
Format settings                : CABAC / 4 Ref Frames
Format settings, CABAC         : Yes
Format settings, Reference fra : 4 frames
Format settings, GOP           : M=1, N=47
Codec ID                       : V_MPEG4/ISO/AVC
Duration                       : 1 h 0 min
Bit rate                       : 13.8 Mb/s
Width                          : 1 920 pixels
Height                         : 1 080 pixels
Display aspect ratio           : 16:9
Frame rate mode                : Constant
Frame rate                     : 23.976 (24000/1001) FPS
Standard                       : Component
Color space                    : YUV
Chroma subsampling             : 4:2:0
Bit depth                      : 8 bits
Scan type                      : Progressive
Bits/(Pixel*Frame)             : 0.277
Stream size                    : 5.83 GiB (90%)

Ses #1
ID                             : 2
Format                         : E-AC-3 JOC
Format/Info                    : Enhanced AC-3 with Joint Object Coding
Commercial name                : Dolby Digital Plus with Dolby Atmos
Codec ID                       : A_EAC3
Duration                       : 1 h 0 min
Bit rate mode                  : Constant
Bit rate                       : 768 kb/s
Channel(s)                     : 6 channels
Channel layout                 : L R C LFE Ls Rs
Sampling rate                  : 48.0 kHz
Frame rate                     : 31.250 FPS (1536 SPF)
Compression mode               : Lossy
Stream size                    : 332 MiB (5%)
Title                          : DDP 5.1 Atmos TVPlus Restruction
Language                       : Turkish
Service kind                   : Complete Main
Default                        : Yes
Forced                         : No
Complexity index               : 16
Number of dynamic objects      : 15
Bed channel count              : 1 channel
Bed channel configuration      : LFE

Ses #2
ID                             : 3
Format                         : E-AC-3
Format/Info                    : Enhanced AC-3
Commercial name                : Dolby Digital Plus
Codec ID                       : A_EAC3
Duration                       : 1 h 0 min
Bit rate mode                  : Constant
Bit rate                       : 768 kb/s
Channel(s)                     : 6 channels
Channel layout                 : L R C LFE Ls Rs
Sampling rate                  : 48.0 kHz
Frame rate                     : 31.250 FPS (1536 SPF)
Compression mode               : Lossy
Stream size                    : 332 MiB (5%)
Title                          : DDP 5.1
Language                       : English
Service kind                   : Complete Main
Default                        : No
Forced                         : No

Altyazı:#1
ID                             : 4
Format                         : UTF-8
Codec ID                       : S_TEXT/UTF8
Codec ID/Info                  : UTF-8 Plain Text
Duration                       : 58 min 57 s
Bit rate                       : 42 b/s
Frame rate                     : 0.164 FPS
Count of elements              : 579
Stream size                    : 18.4 KiB (0%)
Language                       : Turkish
Default                        : No
Forced                         : No





TVPlus 1923 S01E01 768Kbps 23Fps 6Ch E-AC3 Atmos TVPlus Restruction TR Audio TSI

T70KfItn_t.jpg


1. Sezon 1. Bölüm

768Kbps 23Fps 6Ch TVPlus Restruction
Türkçe Ses Dosyası

DisneyPlus Shogun S01 256Kbps 24Fps 6Ch E-AC3 DisneyPlus TR Audio TSI

7O4iVfOMQmdCSxhOg1WnzG1AgYT.jpg


1. Sezon 1. ve 2. Bölüm

256 Kbps 24Fps 6Ch DisneyPlus
Türkçe Ses Dosyası

Netflix Through My Window Looking At You 2024 640Kbps 25Fps 6Ch E-AC3 Netflix TR Audio TSI

1RxPBKMpHlcm5PORiPo6LHUV2ft.jpg


640Kbps 25Fps 6Ch Netflix
Türkçe Ses Dosyası

Amazon American Fiction 2023 640Kbps 23Fps 6Ch E-AC3 Amazon TR Audio TSI

T4zMm97x_t.jpg


640Kbps 23Fps 6Ch Amazon
Türkçe Ses Dosyası

Netflix Mea Culpa 2024 640Kbps 23Fps 6Ch E-AC3 Netflix TR Audio TSI

roxD9VCTTXYfPjVj9HiSC5IMtc7.jpg


640Kbps 23Fps 6Ch Netflix
Türkçe Ses Dosyası

Netflix Daddy Day Camp 2007 640Kbps 23Fps 6Ch E-AC3 Netflix TR Audio TSI

fhuhSVb3j8SShe6FhnVUAfSRg6h.jpg


640Kbps 23Fps 6Ch Netflix
Türkçe Ses Dosyası

TVPlus 1923 S01E01 3563Kbps 23Fps 6Ch DTS-HD MA TVPlus Restruction TR Audio TSI

T70KfItn_t.jpg


1. Sezon 1. Bölüm

3563Kbps 23Fps 6Ch TVPlus Restruction
Türkçe Ses Dosyası

TVPlus 1923 S01E01 2828Kbps 23Fps 6Ch TrueHD TVPlus Restruction TR Audio TSI

T70KfItn_t.jpg


1. Sezon 1. Bölüm

2828Kbps 23Fps 6Ch TVPlus Restruction
Türkçe Ses Dosyası

SIMPLE TrueHD:
DOWNLOAD



Netflix Pain Hustlers 2023 768Kbps 24Fps 6Ch E-AC3 Atmos Netflix TR Audio TSI

QABr4FeJ_t.jpg


768Kbps 24Fps 6Ch Netflix
Türkçe Ses Dosyası

Apple TV Paw Patrol The Mighty Movie 2023 520Kbps 23Fps 6Ch AAC Apple TV TR Audio TSI

rrYuQAkSafUet4Xn4ao2uxOJ2P4.jpg


520Kbps 23Fps 6Ch Apple TV
Türkçe Ses Dosyası

Netflix Twister 1996 640Kbps 23Fps 6Ch E-AC3 Netflix TR Audio TSI

opR82XVNZ5A57FcQmxtNniKwR1Y.jpg


640Kbps 23Fps 6Ch Netflix
Türkçe Ses Dosyası

Amazon The Second Best Hospital In The Galaxy S01 640Kbps 23Fps 6Ch E-AC3 Amazon TR Audio TSI

e7faOUtG_t.jpg


Tüm Bölümler Klasörün içindedir.

640 Kbps 23Fps 6Ch Amazon
Türkçe Ses Dosyası

Üst