Hoşgeldiniz!

Sitemizin imkanlarından yararlanmak için üye olun veya giriş yapınız.

Giriş Yap
  • Stereo (2Ch) Sesler Hakkında!!!
    Merhaba 01.01.2024 tarihinde Stereo yani 2 kanal seslerin kategorisi tamamen son verilecektir sitemiz günümüz teknolojisine uygun olmakla birlikte belirtilen tarihinden itibaren Surround,Dolby Atmos,DTS 5.1-7.1 İşlenmiş,Orjinal ve yakında yine her zaman ki gibi hiçbir sitede yapılmayan Dolby Atmos gibi DTS-X Master Audio teknolojisine sahip yani nesne tabanlı DTS-X Master Audio seslerle hizmet vermeye devam edecektir. Anlayışınız için teşekkürler sağlıklı günler dileriz. By Audio Restruction Technology BigDVD - TSI
  • V.I.P ÜCRETLERİ GÜNCELLENMİŞTİR...!!!
    V.I.P Paketlerimiz güncellenmiş olup 6 Aylık - 12 Aylık Orjinal sesler - 12 Aylık Restruction Sesler olarak 3 paket olarak sunulmaktadır. Detaylı bilgi için bizimle Discord veya Skype üzerinden iletişime geçebilirsiniz. Lütfen gerçekten V.I.P alacaklar eklesin aksi takdir'de discord kanalımıza giriş yapıldığında kanalımızdan çıkarıyorum bilginiz olsun. TSI olarak sağlıklı günler dileriz. İletişim Skype: bigdvd3 - Discord: TIKLAYIN

MKV Planet Earth III S01E05 2023 1080p MKV x265 DDP 7.1 Atmos TR-ENG TSI

BigDVD

Administrator
Yönetici
16 Ekim 2021
1,566
3,880
113
Planet Earth III S01E05 2023 1080p MKV x265 DDP 7.1 Atmos TR-ENG TSI

3YWYbaAJ_t.jpg



9.3 / 10

Türü:
Belgesel

Özet

En yüksek dağlardan en derin okyanuslara, en karanlık mağaralardan en sıcak çöllere kadar gezegenimizdeki muhteşem manzaraları, en muhteşem hayvan mücadelelerini yeni teknolojiyle keşfedin.

Kod:
Video #1
ID                             : 1
Format                         : HEVC
Format/Info                    : High Efficiency Video Coding
Format profile                 : Main [email protected]@Main
HDR format                     : SMPTE ST 2086, HDR10 compatible
Codec ID                       : V_MPEGH/ISO/HEVC
Duration                       : 50 min 34 s
Bit rate                       : 14.8 Mb/s
Width                          : 1 920 pixels
Height                         : 1 080 pixels
Display aspect ratio           : 16:9
Frame rate mode                : Constant
Frame rate                     : 23.976 (24000/1001) FPS
Color space                    : YUV
Chroma subsampling             : 4:2:0
Bit depth                      : 10 bits
Bits/(Pixel*Frame)             : 0.298
Stream size                    : 5.24 GiB (83%)


Ses #1
ID                             : 2
Format                         : E-AC-3 JOC
Format/Info                    : Enhanced AC-3 with Joint Object Coding
Commercial name                : Dolby Digital Plus with Dolby Atmos
Format profile                 : Blu-ray Disc
Codec ID                       : A_EAC3
Duration                       : 50 min 33 s
Bit rate mode                  : Constant
Bit rate                       : 1 536 kb/s
Channel(s)                     : 8 channels
Channel layout                 : L R C LFE Ls Rs Tfl Tfr
Sampling rate                  : 48.0 kHz
Frame rate                     : 31.250 FPS (1536 SPF)
Compression mode               : Lossy
Stream size                    : 556 MiB (9%)
Title                          : DDP 7.1 Atmos BBC Restruction
Language                       : Turkish
Service kind                   : Complete Main
Default                        : Yes
Forced                         : No
Complexity index               : 16
Number of dynamic objects      : 15
Bed channel count              : 1 channel
Bed channel configuration      : LFE

Ses #2
ID                             : 3
Format                         : E-AC-3
Format/Info                    : Enhanced AC-3
Commercial name                : Dolby Digital Plus
Format profile                 : Blu-ray Disc
Format settings                : Dolby Surround EX
Codec ID                       : A_EAC3
Duration                       : 50 min 34 s
Bit rate mode                  : Constant
Bit rate                       : 1 536 kb/s
Channel(s)                     : 8 channels
Channel layout                 : L R C LFE Ls Rs Lb Rb
Sampling rate                  : 48.0 kHz
Frame rate                     : 31.250 FPS (1536 SPF)
Compression mode               : Lossy
Stream size                    : 556 MiB (9%)
Title                          : DDP 7.1
Language                       : English
Service kind                   : Complete Main
Default                        : No
Forced                         : No

Altyazı:#1
ID                             : 4
Format                         : ASS
Codec ID                       : S_TEXT/ASS
Codec ID/Info                  : Advanced Sub Station Alpha
Duration                       : 49 min 14 s
Bit rate                       : 51 b/s
Frame rate                     : 0.110 FPS
Count of elements              : 324
Compression mode               : Lossless
Stream size                    : 18.4 KiB (0%)
Language                       : Turkish
Default                        : No
Forced                         : No








Bu gizli bloğun içeriği yalnızca şu üyeler tarafından görülebilir: TSI V.I.P
 
Son düzenleme:
  • - Yorumlarınız Türkçe olmak ZORUNDADIR! Aynı zamanda büyük harf kullanmak, random harfler kullanmak, birleşik yazmak vb. kesinlikle YASAKTIR!
  • - Eleştirileriniz sunumu yapan kişiyi kırmayacak şekilde ve siteyi kötülemeyecek şekilde olmalıdır.
  • - Yorumlarınıza ekleme yapacaksanız tekrar yorum yapmak yerine düzenleme seçeneğinden yorumunuzu düzenleyerek yapabilirsiniz. (7 gün içinde)
  • - Site dışı link vermek ve reklam yapmak kesinlikle YASAKTIR!
  • - Yorumlarda hakaret, uygunsuz davranış veya hatalı içerik görenler direkt Rapor tuşuna basarak yönetime bildirebilirler.
Üst