Hoşgeldiniz!

Sitemizin imkanlarından yararlanmak için üye olun veya giriş yapınız.

Giriş Yap
  • Stereo (2Ch) Sesler Hakkında!!!
    Merhaba 01.01.2024 tarihinde Stereo yani 2 kanal seslerin kategorisi tamamen son verilecektir sitemiz günümüz teknolojisine uygun olmakla birlikte belirtilen tarihinden itibaren Surround,Dolby Atmos,DTS 5.1-7.1 İşlenmiş,Orjinal ve yakında yine her zaman ki gibi hiçbir sitede yapılmayan Dolby Atmos gibi DTS-X Master Audio teknolojisine sahip yani nesne tabanlı DTS-X Master Audio seslerle hizmet vermeye devam edecektir. Anlayışınız için teşekkürler sağlıklı günler dileriz. By Audio Restruction Technology BigDVD - TSI
  • V.I.P ÜCRETLERİ GÜNCELLENMİŞTİR...!!!
    V.I.P Paketlerimiz güncellenmiş olup 6 Aylık - 12 Aylık Orjinal sesler - 12 Aylık Restruction Sesler olarak 3 paket olarak sunulmaktadır. Detaylı bilgi için bizimle Discord veya Skype üzerinden iletişime geçebilirsiniz. Lütfen gerçekten V.I.P alacaklar eklesin aksi takdir'de discord kanalımıza giriş yapıldığında kanalımızdan çıkarıyorum bilginiz olsun. TSI olarak sağlıklı günler dileriz. İletişim Skype: bigdvd3 - Discord: TIKLAYIN

Türkçe Ses Dosyası İndir

Amazon Expats S01 640Kbps 23Fps 6Ch E-AC3 Amazon TR Audio TSI

aFYNDLgM_t.jpg




640 Kbps 23Fps 6Ch Amazon
Türkçe Ses Dosyası

Amazon The Underdoggs 2024 640Kbps 23Fps 6Ch E-AC3 Amazon TR Audio TSI

bMA1Ly0E_t.jpg


640Kbps 23Fps 6Ch Amazon
Türkçe Ses Dosyası

Amazon The Terminal List S01 640Kbps 23Fps 6Ch E-AC3 Amazon TR Audio TSI

4hEfdQKDuv5oGmdYhbrhZ4k1XI0.jpg


640 Kbps 23Fps 6Ch Amazon
Türkçe Ses Dosyası

MKV Planet Earth III S01E06 2023 1080p MKV x265 DDP 7.1 Atmos TR-ENG TSI

Planet Earth III S01E06 2023 1080p MKV x265 DDP 7.1 Atmos TR-ENG TSI

3YWYbaAJ_t.jpg



9.3 / 10

Türü:
Belgesel

Özet

En yüksek dağlardan en derin okyanuslara, en karanlık mağaralardan en sıcak çöllere kadar gezegenimizdeki muhteşem manzaraları, en muhteşem hayvan mücadelelerini yeni teknolojiyle keşfedin.

Kod:
ID                             : 1
Format                         : HEVC
Format/Info                    : High Efficiency Video Coding
Format profile                 : Main [email protected]@Main
HDR format                     : SMPTE ST 2086, HDR10 compatible
Codec ID                       : V_MPEGH/ISO/HEVC
Duration                       : 51 min 19 s
Bit rate                       : 14.5 Mb/s
Width                          : 1 920 pixels
Height                         : 1 080 pixels
Display aspect ratio           : 16:9
Frame rate mode                : Constant
Frame rate                     : 23.976 (24000/1001) FPS
Color space                    : YUV
Chroma subsampling             : 4:2:0
Bit depth                      : 10 bits
Bits/(Pixel*Frame)             : 0.291
Stream size                    : 5.19 GiB (81%)

Ses #1
ID                             : 2
Format                         : E-AC-3 JOC
Format/Info                    : Enhanced AC-3 with Joint Object Coding
Commercial name                : Dolby Digital Plus with Dolby Atmos
Format profile                 : Blu-ray Disc
Codec ID                       : A_EAC3
Duration                       : 51 min 19 s
Bit rate mode                  : Constant
Bit rate                       : 1 536 kb/s
Channel(s)                     : 8 channels
Channel layout                 : L R C LFE Ls Rs Tfl Tfr
Sampling rate                  : 48.0 kHz
Frame rate                     : 31.250 FPS (1536 SPF)
Compression mode               : Lossy
Stream size                    : 564 MiB (9%)
Title                          : DDP 7.1 Atmos BBC Restruction
Language                       : Turkish
Service kind                   : Complete Main
Default                        : Yes
Forced                         : No
Complexity index               : 16
Number of dynamic objects      : 15
Bed channel count              : 1 channel
Bed channel configuration      : LFE

Ses #2
ID                             : 3
Format                         : E-AC-3
Format/Info                    : Enhanced AC-3
Commercial name                : Dolby Digital Plus
Format profile                 : Blu-ray Disc
Format settings                : Dolby Surround EX
Codec ID                       : A_EAC3
Duration                       : 51 min 19 s
Bit rate mode                  : Constant
Bit rate                       : 1 536 kb/s
Channel(s)                     : 8 channels
Channel layout                 : L R C LFE Ls Rs Lb Rb
Sampling rate                  : 48.0 kHz
Frame rate                     : 31.250 FPS (1536 SPF)
Compression mode               : Lossy
Stream size                    : 564 MiB (9%)
Title                          : DDP 7.1
Language                       : English
Service kind                   : Complete Main
Default                        : No
Forced                         : No

Altyazı:#1
ID                             : 4
Format                         : ASS
Codec ID                       : S_TEXT/ASS
Codec ID/Info                  : Advanced Sub Station Alpha
Duration                       : 50 min 30 s
Compression mode               : Lossless
Language                       : Turkish
Default                        : No
Forced                         : No


BBC Planet Earth III S01E06 4354Kbps 23Fps 8Ch TrueHD Atmos BBC Restruction TR Audio TSI

3YWYbaAJ_t.jpg


1. Sezon 6. Bölüm

4354Kbps 23Fps 8Ch BBC Restruction
Türkçe Ses Dosyası

BBC Planet Earth III S01E06 1536Kbps 23Fps 8Ch E-AC3 Atmos BBC Restruction TR Audio TSI

3YWYbaAJ_t.jpg


1. Sezon 6. Bölüm

1536Kbps 23Fps 8Ch BBC Restruction
Türkçe Ses Dosyası

SIMPLE ATMOS:
DOWNLOAD

BBC Planet Earth III S01E06 5157Kbps 23Fps 8Ch DTS-HD MA BBC Restruction TR Audio TSI

3YWYbaAJ_t.jpg


1. Sezon 6. Bölüm

5157Kbps 23Fps 8Ch BBC Restruction
Türkçe Ses Dosyası

SIMPLE:
DOWNLOAD

TVPlus 1883 S01E10 768Kbps 23Fps 6Ch E-AC3 Atmos TVPlus Restruction TR Audio TSI

rVtTuyEPMX4hK8atSYUoNHh3DAB.jpg


1. Sezon 10. Bölüm

768Kbps 23Fps 6Ch TVPlus Restruction
Türkçe Ses Dosyası

TVPlus 1883 S01E10 3561Kbps 23Fps 6Ch DTS-HD MA TVPlus Restruction TR Audio TSI

rVtTuyEPMX4hK8atSYUoNHh3DAB.jpg


1. Sezon 10. Bölüm

3561Kbps 23Fps 6Ch TVPlus Restruction
Türkçe Ses Dosyası

TVPlus 1883 S01E10 3037Kbps 23Fps 6Ch TrueHD TVPlus Restruction TR Audio TSI

rVtTuyEPMX4hK8atSYUoNHh3DAB.jpg


1. Sezon 10.Bölüm

3037Kbps 23Fps 6Ch TVPlus Restruction
Türkçe Ses Dosyası

Netflix Kill Me If You Dare 2024 640kbps 25fps 6ch E-AC3 Netflix TR Audio TSI

ajGJmcLNgFNTHN2IkOwoQDHqXv0.jpg


640Kbps 25Fps 6Ch Netflix
Türkçe Ses Dosyası

DisneyPlus The Marvels 2023 4441Kbps 23Fps 8Ch TrueHD Atmos DisneyPlus Restruction TR Audio TSI

l4ffTnCpcVgjF6TeKMtOIKTRdxG.jpg


4441Kbps 23Fps 8Ch Disney+
Türkçe Ses Dosyası

DisneyPlus The Marvels 2023 1536Kbps 23Fps 8Ch E-AC3 Atmos DisneyPlus Restruction TR Audio TSI

l4ffTnCpcVgjF6TeKMtOIKTRdxG.jpg


1536Kbps 23Fps 8Ch DisneyPlus Restruction
Türkçe Ses Dosyası

TİVİBU Big George Foreman 2023 768Kbps 23Fps 6Ch E-AC3 Atmos TIVIBU Restruction TR Audio TSI

sT7Eb7Gy_t.jpg


768Kbps 23Fps 6Ch TIVIBU Restruction
Türkçe Ses Dosyası

DisneyPlus The Marvels 2023 5200Kbps 23Fps 8Ch DTS-HD MA DisneyPlus Restruction TR Audio TSI

l4ffTnCpcVgjF6TeKMtOIKTRdxG.jpg


5200Kbps 23Fps 8Ch DisneyPlus Restruction
Türkçe Ses Dosyası

TİVİBU Big George Foreman 2023 2153Kbps 23Fps 6Ch DTS-HD MA TIVIBU Restruction TR Audio TSI

sT7Eb7Gy_t.jpg


2153Kbps 23Fps 6Ch TIVIBU Restruction
Türkçe Ses Dosyası

Amazon Upgraded 2024 640Kbps 24Fps 6Ch E-AC3 Amazon TR Audio TSI

52kkURp4_t.jpg


640Kbps 24Fps 6Ch Amazon
Türkçe Ses Dosyası

TİVİBU Big George Foreman 2023 2132Kbps 23Fps 6Ch TrueHD TIVIBU Restruction TR Audio TSI

sT7Eb7Gy_t.jpg


2132Kbps 23Fps 6Ch TrueHD TIVIBU Restruction
Türkçe Ses Dosyası

DisneyPlus The Marvels 2023 256Kbps 23Fps 6Ch E-AC3 DisneyPlus TR Audio TSI

l4ffTnCpcVgjF6TeKMtOIKTRdxG.jpg


256Kbps 23Fps 6Ch DisneyPlus
Türkçe Ses Dosyası

VCD The Phantom 1996 5733Kbps 23Fps 8Ch DTS-HD MA VCD Restruction TR Audio TSI

prMh8nCY_t.jpg


5733Kbps 23Fps 8Ch VCD Restruction
Türkçe Ses Dosyası
Üst